#TITLE:Blood On Fire;
#SUBTITLE:;
#ARTIST:GO 2 & CHRISTINE;
#TITLETRANSLIT:;
#SUBTITLETRANSLIT:;
#ARTISTTRANSLIT:;
#GENRE:;
#CREDIT:;
#BANNER:cdtitle.png;
#BACKGROUND:;
#LYRICSPATH:;
#CDTITLE:cdtitle.png;
#MUSIC:blood.mp3;
#OFFSET:0.743;
#SAMPLESTART:58.580;
#SAMPLELENGTH:12.000;
#SELECTABLE:YES;
#BPMS:0.000=155.000;
#STOPS:;
#DELAYS:;
#TIMESIGNATURES:0.000=4=4
;
#BGCHANGES:2.250=flipped.avi=1.000=0=0=1=====,
2.500=flipped.avi=1.000=0=0=1=====,
99999=-nosongbg-=1.000=0=0=0 // don't automatically add -songbackground-
;
#KEYSOUNDS:;
#ATTACKS:;
// cache tags:
#FIRSTBEAT:54.000;
#LASTBEAT:266.000;
#SONGFILENAME:/Songs/ParaPara/Blood On Fire/blood.sm;
#HASMUSIC:1;
#HASBANNER:1;
#MUSICLENGTH:106.201;
// end cache tags

//---------------para-single - ----------------
#NOTES:
     para-single:
     :
     Beginner:
     5:
     0.218,0.407,0.085,0.330,0.056,118.000,9.000,35.000,0.000,0.000,0.000,0.000,-1.000,-1.000,0.218,0.407,0.085,0.330,0.056,118.000,9.000,35.000,0.000,0.000,0.000,0.000,-1.000,-1.000:
00000
00000
00000
00000
,
00000
00000
00000
00000
,
00000
00000
00000
00000
,
00000
00000
00000
00000
,
00000
00000
00000
00000
,
00000
00000
00000
00000
,
00000
00000
00000
00000
,
00000
00000
00000
00000
,
00000
00000
00000
00000
,
00000
00000
00000
00000
,
00000
00000
00000
00000
,
00000
00000
00000
00000
,
00000
00000
00000
00000
,
00000
00000
00020
02030
,
00000
00000
00020
03000
,
00000
00000
02000
00000
,
03030
00000
01000
00010
,
00010
01000
00020
02030
,
00000
00000
00020
03000
,
00000
00000
02000
00000
,
03030
00000
00000
00002
,
00003
00000
00000
20000
,
30000
00000
00010
00000
,
00000
00000
01000
00000
,
00000
00000
01010
00000
,
00000
00000
00020
01030
,
00000
01010
00010
00000
,
00000
00000
01000
00000
,
00000
00000
01010
00000
,
00000
00000
00020
01030
,
00000
01010
01000
00100
,
00000
00000
01000
00100
,
00000
00000
01000
00100
,
00000
00000
01000
00100
,
00000
00000
00002
00003
,
20000
30000
01000
00010
,
00000
00010
20000
30000
,
00002
00003
00010
01000
,
01000
01000
01000
00100
,
00010
00000
00010
00100
,
01000
00000
00000
00000
00000
00000
00000
00000
01000
00100
00010
00001
00000
00000
00000
00000
,
00010
00100
01000
10000
00000
00000
00000
00000
02020
00000
00000
00000
03030
00000
00000
00000
,
00000
00000
01000
00100
,
00010
00000
00010
00100
,
01000
00000
00000
00000
00000
00000
00000
00000
01000
00100
00010
00001
00000
00000
00000
00000
,
00010
00100
01000
10000
00000
00000
00000
00000
00010
00000
00000
00000
00010
00000
00100
00000
,
01000
00000
00010
00100
01000
00000
00000
00000
,
00000
00000
01000
00010
,
00000
00000
00100
20002
,
30003
00000
01000
00010
,
00010
01000
00000
02020
,
00000
03030
01000
00010
,
00000
00100
00100
00000
,
00000
00000
00000
00000
00000
00000
00000
00000
01000
00100
00010
00001
00000
00000
00000
00000
,
00010
00100
01000
10000
00000
00000
00000
00000
00020
00000
00000
00000
00030
00000
00000
00000
,
02000
03000
02020
03030
,
00000
00000
00200
00300
,
00000
00000
00000
00000
,
00000
00000
00000
00000
,
00000
00000
02020
00000
,
03030
00000
01000
00010
,
00010
01000
00020
02030
,
00000
00000
00020
03000
,
00000
00000
02000
00000
,
03030
00000
00000
00002
,
00003
00000
00000
20000
,
30000
00000
00010
00000
;
